Loading...
 * Dettagli Torrent   globale  | .nfo   | Commenti (3) 


- Io.E.Lei.2015.iTALiAN.AC3.DVDRip.x264-iDN_CreW.mkv -


Download via torrent:
Categoria bittorrent BDRip
Descrizione






Info Seed/Peer






TITOLO ORIGINALE: Io E Lei
DATA USCITA: 01 ottobre 2015
GENERE: Commedia , Drammatico
ANNO: 2015
REGIA: Maria Sole Tognazzi
SCENEGGIATURA: Maria Sole Tognazzi, Francesca Marciano, Ivan Cotroneo
FOTOGRAFIA: Arnaldo Catinari
PRODUZIONE: Indigo Film
DISTRIBUZIONE: Lucky Red
PAESE: Italia
DURATA: 97 Min










Federica e Marina vivono insieme da diversi anni. Vengono da percorsi diversi, hanno caratteri e modi di vita differenti, discutono e si amano discutendo come tutte le coppie del mondo. La loro storia d’amore è a un punto di svolta. Proprio quando Marina pensa che ormai si possano considerare una coppia stabile, Federica mossa da una serie di accadimenti entra in crisi. E comincia a porsi delle domande. Con chi vorrebbe dividere la propria vita? Chi è che ama veramente? E lei davvero, chi è? Una commedia d'amore vera, passionale, quotidiana e molto combattuta, come una piccola battaglia in cui vince solo chi sa lottare per la felicità. A patto di capire dove sia.















Code
General
Unique ID : (0xB9BC677DAA4E8633986DC61626C69193)
Complete name : C:\Users\iDN_CreW\Io.E.Lei.2015.iTALiAN.AC3.DVDRip.x264-iDN_CreW.mkv
Format : Matroska
Format version : Version 4 / Version 2
File size : 1.24 GiB
Duration : 1h 37mn
Overall bit rate : 1 822 Kbps
Movie name : iDN_CreW
Encoded date : UTC 2016-01-31 19:26:38
Writing application : mkvmerge v8.3.0 ('Over the Horizon') 32bit
Writing library : libebml v1.3.1 + libmatroska v1.4.2
Attachements : nuuuuuuuuuuu.png
DURATION : 01:37:06.528000000
NUMBER_OF_FRAMES : 182079
NUMBER_OF_BYTES : 279673344
_STATISTICS_WRITING_APP : mkvmerge v8.3.0 ('Over the Horizon') 32bit
_STATISTICS_WRITING_DATE_UT : 2016-01-31 19:26:38
_STATISTICS_TAGS : BPS DURATION NUMBER_OF_FRAMES NUMBER_OF_BYTES

Video
ID : 1
Format : MPEG-4 Visual
Format profile : Advanced [email protected]
Format settings, BVOP : 1
Format settings, QPel : No
Format settings, GMC : No warppoints
Format settings, Matrix : Default (H.263)
Codec ID : V_MS/VFW/FOURCC / XVID
Codec ID/Hint : XviD
Duration : 1h 37mn
Bit rate : 1 401 Kbps
Width : 720 pixels
Height : 304 pixels
Display aspect ratio : 2.35:1
Frame rate mode : Constant
Frame rate : 25.000 fps
Color space : YUV
Chroma subsampling : 4:2:0
Bit depth : 8 bits
Scan type : Progressive
Compression mode : Lossy
Bits/(Pixel*Frame) : 0.256
Stream size : 973 MiB (77%)
Writing library : XviD 67
Default : Yes
Forced : No

Audio
ID : 2
Format : AC-3
Format/Info : Audio Coding 3
Mode extension : CM (complete main)
Format settings, Endianness : Big
Codec ID : A_AC3
Duration : 1h 37mn
Bit rate mode : Constant
Bit rate : 384 Kbps
Channel(s) : 6 channels
Channel positions : Front: L C R, Side: L R, LFE
Sampling rate : 48.0 KHz
Bit depth : 16 bits
Compression mode : Lossy
Stream size : 267 MiB (21%)
Title : AC3 iTA
Default : Yes
Forced : No









Audio: 9 Video: 9




Info: Per scaricare devi usare un client come uTorrent o Transmission
AnnounceURL
udp://open.demonii.com:1337/announce
Hash 47f7082b19930aba5992cb63ff0a3366608fa1c6
Peers seeds: 0 , leech: 0
Size 1.24 GB
Completato 0x
Aggiunto 01.02.16 - 19:02:37
Uploader   ..:AloN:..
Votazione (Voti: 1)


Condividi questo bittorrent:


html/blog:


bbcode/forum:




Aggiungi Commento
Ultimi commenti
avatar   ..:AloN:..   
Usa il magnet link
03/02 19.17
 animaliquidaanimaliquida   
No found torrent
03/02 12.10
avatar   ..:AloN:..   
Buona visione
01/02 19.44
Tutti commenti (3)