Loading...
 * Dettagli Torrent   globale  | Commenti (0) 


- Star Trek: Into Darkness (2013).1080p.H264.italian.english.Ac3-5.1.sub.ita.eng-MIRCrew -


Download via torrent:
Categoria bittorrent BDRip
Descrizione
Star Trek: Into Darkness (2013).1080p.H264.italian.english.Ac3-5.1.sub.ita.eng-MIRCrew



NO FOUND ONLY ORIGINAL RELEASE

My release is always in double track audio italian and Original audio
for select it use VLC or dvd player home
not use wmp

Star Trek: Into Darkness

(2013)


Quality MIRCrew on HD 1080p da  3,9 gb











Titolo originale Star Trek Into Darkness
Lingua originale inglese
Paese di produzione Stati Uniti d'America
Anno 2013
Durata 132 min
Rapporto 2,39:1
1,44:1 (sequenze IMAX)
Genere azione, fantascienza, avventura
Regia J. J. Abrams
Soggetto basato su Star Trek di Gene Roddenberry
Sceneggiatura Alex Kurtzman, Roberto Orci, Damon Lindelof
Produttore J. J. Abrams, Alex Kurtzman, Roberto Orci, Damon Lindelof, Bryan Burk
Produttore esecutivo Jeffrey Chernov, David Ellison, Dana Goldberg, Paul Schwake
Casa di produzione Paramount Pictures, Bad Robot Productions, Kurtzman/Orci, Skydance Productions
Distribuzione (Italia) Universal Pictures
Fotografia Daniel Mindel
Montaggio Maryann Brandon, Mary Jo Markey
Musiche Michael Giacchino
Scenografia Scott Chambliss
Costumi Michael Kaplan
Trucco Jeanne Van Phue



  Chris Pine: James T. Kirk
  Zachary Quinto: Spock
  Zoë Saldaña: Nyota Uhura
  Benedict Cumberbatch: Khan
  Alice Eve: Dott.ssa Carol Marcus
  Karl Urban: Dott. Leonard 'Bones' McCoy
  Simon Pegg: Montgomery Scott
  John Cho: Hikaru Sulu
  Anton Yelchin: Pavel Chekov
  Bruce Greenwood: Amm. Christopher Pike
  Peter Weller: Amm. Alexander Marcus
  Noel Clarke: Thomas Harewood
  Nazneen Contractor: Rima Harewood
  Leonard Nimoy: Spock anziano




Sul pianeta Nibiru l'eruzione di un enorme vulcano minaccia di distruggere la primitiva civiltà locale. Il capitano dell'Enterprise James T. Kirk viola la Prima direttiva della Federazione salvando la popolazione indigena e mostrando la sua nave per strappare Spock da morte certa dalle fauci del vulcano. Per tale motivo Kirk viene degradato al ruolo di primo ufficiale sulla nave dell'ammiraglio Pike, mentre Spock viene riassegnato a un'altra nave



After the crew of the Enterprise find an unstoppable force of terror from within their own organization, Captain Kirk leads a manhunt to a war-zone world to capture a one-man weapon of mass destruction......

 





General
Unique ID                                : 235487948182345678509697601988094517618 (0xB129543F8C5856A0A4C971453D8EE172)
Complete name                            : Star Trek - Into Darkness (2013).1080p.h264.ita.eng.Sub ita.eng-MIRCrewStar Trek - Into Darkness (2013).1080p.h264.ita.eng.Sub ita.eng-MIRCrew.mkv
Format                                   : Matroska
Format version                           : Version 2
File size                                : 3.92 GiB
Duration                                 : 2h 12mn
Overall bit rate                         : 4 252 Kbps
Movie name                               : MIRCrew
Encoded date                             : UTC 2019-01-29T16:41:20Z
Writing application                      : mkvmerge v5.4.0 ('Piper&#39 built on Mar 10 2012 13:34:39
Writing library                          : Lavf55.12.0

Video
ID                                       : 1
Format                                   : AVC
Format/Info                              : Advanced Video Codec
Format profile                           : [email protected]
Format settings, CABAC                   : Yes
Format settings, ReFrames                : 4 frames
Codec ID                                 : V_MPEG4/ISO/AVC
Duration                                 : 2h 12mn
Bit rate                                 : 3 400 Kbps
Width                                    : 1 920 pixels
Height                                   : 800 pixels
Display aspect ratio                     : 2.40:1
Frame rate                               : 23.976 fps
Color space                              : YUV
Chroma subsampling                       : 4:2:0
Bit depth                                : 8 bits
Scan type                                : Progressive
Bits/(Pixel*Frame)                       : 0.092
Stream size                              : 3.02 GiB (77%)
Title                                    : MIRCrew
Writing library                          : x264 core 142 r2479 dd79a61
Encoding settings                        : cabac=1 / ref=1 / deblock=1:-1:-1 / analyse=0x1:0x111 / me=hex / subme=2 / psy=1 / psy_rd=1.00:0.15 / mixed_ref=0 / me_range=16 / chroma_me=1 / trellis=0 / 8x8dct=0 / cqm=0 / deadzone=21,11 / fast_pskip=1 / chroma_qp_offset=0 / threads=6 / lookahead_threads=2 / sliced_threads=0 / nr=0 / decimate=1 / interlaced=0 / bluray_compat=0 / constrained_intra=0 / bframes=3 / b_pyramid=2 / b_adapt=1 / b_bias=0 / direct=1 / weightb=1 / open_gop=0 / weightp=1 / keyint=240 / keyint_min=24 / scenecut=40 / intra_refresh=0 / rc_lookahead=10 / rc=abr / mbtree=1 / bitrate=3400 / ratetol=1.0 / qcomp=0.60 / qpmin=0 / qpmax=69 / qpstep=4 / vbv_maxrate=50000 / vbv_bufsize=62500 / nal_hrd=none / filler=0 / ip_ratio=1.40 / aq=1:1.00
Language                                 : Italian
Default                                  : Yes
Forced                                   : No
Color primaries                          : BT.709-5, BT.1361, IEC 61966-2-4, SMPTE RP177
Transfer characteristics                 : BT.709-5, BT.1361
Matrix coefficients                      : BT.709-5, BT.1361, IEC 61966-2-4 709, SMPTE RP177

Audio #1
ID                                       : 2
Format                                   : AC-3
Format/Info                              : Audio Coding 3
Mode extension                           : CM (complete main)
Codec ID                                 : A_AC3
Duration                                 : 2h 12mn
Bit rate mode                            : Constant
Bit rate                                 : 448 Kbps
Channel(s)                               : 6 channels
Channel positions                        : Front: L C R, Side: L R, LFE
Sampling rate                            : 48.0 KHz
Bit depth                                : 16 bits
Compression mode                         : Lossy
Delay relative to video                  : -83ms
Stream size                              : 423 MiB (11%)
Title                                    : Ita Ac3 5.1
Language                                 : Italian
Default                                  : No
Forced                                   : No

Audio #2
ID                                       : 3
Format                                   : AC-3
Format/Info                              : Audio Coding 3
Mode extension                           : CM (complete main)
Codec ID                                 : A_AC3
Duration                                 : 2h 12mn
Bit rate mode                            : Constant
Bit rate                                 : 448 Kbps
Channel(s)                               : 6 channels
Channel positions                        : Front: L C R, Side: L R, LFE
Sampling rate                            : 48.0 KHz
Bit depth                                : 16 bits
Compression mode                         : Lossy
Delay relative to video                  : -5ms
Stream size                              : 423 MiB (11%)
Title                                    : Eng Ac3 5.1
Language                                 : English
Default                                  : No
Forced                                   : No

Menu
00:00:00.000                             : :Chapter 1
00:10:20.494                             : :Chapter 2
00:19:21.618                             : :Chapter 3
00:30:04.094                             : :Chapter 4
00:40:09.448                             : :Chapter 5
00:46:05.387                             : :Chapter 6
00:56:38.478                             : :Chapter 7
01:06:35.908                             : :Chapter 8
01:12:55.788                             : :Chapter 9
01:22:46.002                             : :Chapter 10
01:30:54.866                             : :Chapter 11
01:38:36.494                             : :Chapter 12
01:47:09.881                             : :Chapter 13
01:54:17.267                             : :Chapter 14
01:59:20.903                             : :Chapter 15
02:03:18.432                             : :Chapter 16

Info: Per scaricare devi usare un client come uTorrent o Transmission
AnnounceURL
udp://tracker.coppersurfer.tk:6969/announce
Hash e1efc32066121809cdec8189df77d3e6bdc429b7
Peers seeds: 47 , leech: 45
Size 3.92 GB
Completato 231x
Aggiunto 02.02.19 - 17:02:11
Uploader   robbyrs
Votazione (Voti: 0)


Condividi questo bittorrent:


html/blog:


bbcode/forum:




Aggiungi Commento