Loading...
 * Dettagli Torrent   globale  | Commenti (0) 


- First Man - Il Primo Uomo (2018).720p.H264.italian.english.Ac3-5.1.sub.ita.eng-MIRCrew -


Download via torrent:
Categoria bittorrent BDRip
Descrizione
First Man - Il Primo Uomo 2018.720p.H264.italian.english.Ac3-5.1.sub.ita.eng-MIRCrew


NO FOUND ONLY ORIGINAL RELEASE

My release is always in double track audio italian and Original audio
for select it use VLC or dvd player home
not use wmp

First Man - Il Primo Uomo

2018

Quality MIRCrew on HD 720p da  2,8 gb




VIDEO:







Titolo originale First Man
Lingua originale inglese
Paese di produzione Stati Uniti d'America
Anno 2018
Durata 141 min
Rapporto 2,39 : 1
Genere biografico, drammatico, storico
Regia Damien Chazelle
Soggetto dal libro biografico di James R. Hansen
Sceneggiatura Josh Singer



   Ryan Gosling: Neil Armstrong
   Claire Foy: Janet Shearon Armstrong
   Corey Stoll: Buzz Aldrin
   Pablo Schreiber: Jim Lovell
   Jason Clarke: Edward Higgins White
   Kyle Chandler: Deke Slayton
   Christopher Abbott: David Scott
   Patrick Fugit: Elliott See
   Ciarán Hinds: Robert R. Gilruth
   Lukas Haas: Mike Collins
   Shea Whigham: Gus Grissom
   Ethan Embry: Pete Conrad
   Olivia Hamilton: Patricia White
   Gavin Warren: Rick Armstrong
   Connor Colton Blodgett: Mark Armstrong
   Brian d'Arcy James: Joseph A. Walker
   Cory Michael Smith: Roger Chaffee
   Brady Smith: Butch Butchart
   William Gregory Lee: Gordon Cooper
   Skyler Bible: Richard F. Gordon Jr.
   John David Whalen: John Glenn



Neil Armstrong entrò alla NASA nel 1962. Dopo varie missioni, partecipò all'Apollo 11 e divenne, il 20 luglio 1969, il primo uomo a mettere piede sulla Luna.



A Biopic on the life of the legendary American Astronaut Neil Armstrong from 1961-1969, on his journey to becoming the first human to walk the moon. Exploring the sacrifices and costs on the Nation and Neil himself, during one of the most dangerous missions in the history of space travel.

 





General
Unique ID                                : 233773106760692529289775407711143667166 (0xAFDF1009D95DFB4A3545F8CDEF5525DE)
Complete name                            : First Man - Il Primo Uomo 2018.720p.h264.ita.eng.sub.ita.eng-MIRCrewFirst Man - Il Primo Uomo 2018.720p.h264.ita.eng.sub.ita.eng-MIRCrew.mkv
Format                                   : Matroska
Format version                           : Version 4 / Version 2
File size                                : 2.85 GiB
Duration                                 : 2h 20mn
Overall bit rate                         : 2 894 Kbps
Movie name                               : MIRCrew
Encoded date                             : UTC 2019-02-02T16:13:30Z
Writing application                      : mkvmerge v26.0.0 ('In The Game&#39 64-bit
Writing library                          : Lavf55.12.0

Video
ID                                       : 1
Format                                   : AVC
Format/Info                              : Advanced Video Codec
Format profile                           : [email protected]
Format settings, CABAC                   : Yes
Format settings, ReFrames                : 4 frames
Codec ID                                 : V_MPEG4/ISO/AVC
Duration                                 : 2h 20mn
Bit rate                                 : 2 000 Kbps
Width                                    : 1 280 pixels
Height                                   : 560 pixels
Display aspect ratio                     : 2.25:1
Frame rate                               : 23.976 fps
Color space                              : YUV
Chroma subsampling                       : 4:2:0
Bit depth                                : 8 bits
Scan type                                : Progressive
Bits/(Pixel*Frame)                       : 0.116
Stream size                              : 1.91 GiB (67%)
Title                                    : MIRCrew
Writing library                          : x264 core 142 r2479 dd79a61
Encoding settings                        : cabac=1 / ref=1 / deblock=1:0:0 / analyse=0x1:0x111 / me=hex / subme=2 / psy=1 / psy_rd=1.00:0.00 / mixed_ref=0 / me_range=16 / chroma_me=1 / trellis=0 / 8x8dct=0 / cqm=0 / deadzone=21,11 / fast_pskip=1 / chroma_qp_offset=0 / threads=6 / lookahead_threads=2 / sliced_threads=0 / nr=0 / decimate=1 / interlaced=0 / bluray_compat=0 / constrained_intra=0 / bframes=3 / b_pyramid=2 / b_adapt=1 / b_bias=0 / direct=1 / weightb=1 / open_gop=0 / weightp=1 / keyint=240 / keyint_min=24 / scenecut=40 / intra_refresh=0 / rc_lookahead=10 / rc=abr / mbtree=1 / bitrate=2000 / ratetol=1.0 / qcomp=0.60 / qpmin=0 / qpmax=69 / qpstep=4 / vbv_maxrate=50000 / vbv_bufsize=62500 / nal_hrd=none / filler=0 / ip_ratio=1.40 / aq=1:1.00
Language                                 : Italian
Default                                  : Yes
Forced                                   : No
DURATION                                 : 02:20:59.868000000
NUMBER_OF_FRAMES                         : 202834
NUMBER_OF_BYTES                          : 2110482859
_STATISTICS_WRITING_APP                  : mkvmerge v26.0.0 ('In The Game&#39 64-bit
_STATISTICS_WRITING_DATE_UTC             : 2019-02-03 01:19:03
_STATISTICS_TAGS                         : BPS DURATION NUMBER_OF_FRAMES NUMBER_OF_BYTES
Color primaries                          : BT.709-5, BT.1361, IEC 61966-2-4, SMPTE RP177
Transfer characteristics                 : BT.709-5, BT.1361
Matrix coefficients                      : BT.709-5, BT.1361, IEC 61966-2-4 709, SMPTE RP177

Audio #1
ID                                       : 2
Format                                   : AC-3
Format/Info                              : Audio Coding 3
Mode extension                           : CM (complete main)
Codec ID                                 : A_AC3
Duration                                 : 2h 20mn
Bit rate mode                            : Constant
Bit rate                                 : 448 Kbps
Channel(s)                               : 6 channels
Channel positions                        : Front: L C R, Side: L R, LFE
Sampling rate                            : 48.0 KHz
Bit depth                                : 16 bits
Compression mode                         : Lossy
Delay relative to video                  : -5ms
Stream size                              : 452 MiB (15%)
Title                                    : Ita Ac3 5.1
Language                                 : Italian
Default                                  : Yes
Forced                                   : No
DURATION                                 : 02:20:59.936000000
NUMBER_OF_FRAMES                         : 264373
NUMBER_OF_BYTES                          : 473756416
_STATISTICS_WRITING_APP                  : mkvmerge v26.0.0 ('In The Game&#39 64-bit
_STATISTICS_WRITING_DATE_UTC             : 2019-02-03 01:19:03
_STATISTICS_TAGS                         : BPS DURATION NUMBER_OF_FRAMES NUMBER_OF_BYTES

Audio #2
ID                                       : 3
Format                                   : AC-3
Format/Info                              : Audio Coding 3
Mode extension                           : CM (complete main)
Codec ID                                 : A_AC3
Duration                                 : 2h 20mn
Bit rate mode                            : Constant
Bit rate                                 : 448 Kbps
Channel(s)                               : 6 channels
Channel positions                        : Front: L C R, Side: L R, LFE
Sampling rate                            : 48.0 KHz
Bit depth                                : 16 bits
Compression mode                         : Lossy
Delay relative to video                  : -5ms
Stream size                              : 452 MiB (15%)
Title                                    : Eng Ac3 5.1
Language                                 : English
Default                                  : No
Forced                                   : No
DURATION                                 : 02:20:59.936000000
NUMBER_OF_FRAMES                         : 264373
NUMBER_OF_BYTES                          : 473756416
_STATISTICS_WRITING_APP                  : mkvmerge v26.0.0 ('In The Game&#39 64-bit
_STATISTICS_WRITING_DATE_UTC             : 2019-02-03 01:19:03
_STATISTICS_TAGS                         : BPS DURATION NUMBER_OF_FRAMES NUMBER_OF_BYTES

Menu
00:00:00.000                             : :00:00:00.000
00:07:20.565                             : :00:07:20.440
00:13:36.107                             : :00:13:35.982
00:19:53.317                             : :00:19:53.192
00:25:59.850                             : :00:25:59.725
00:31:30.263                             : :00:31:30.138
00:40:17.373                             : :00:40:17.248
00:49:57.869                             : :00:49:57.703
01:00:03.224                             : :01:00:03.016
01:05:42.605                             : :01:05:42.397
01:11:05.928                             : :01:11:05.720
01:15:13.092                             : :01:15:12.967
01:21:33.138                             : :01:21:32.888
01:30:35.430                             : :01:30:35.305
01:39:00.851                             : :01:39:00.726
01:48:58.657                             : :01:48:58.490
01:54:44.586                             : :01:54:44.419
02:00:15.082                             : :02:00:14.916
02:09:55.913                             : :02:09:55.705
02:14:02.868                             : :02:14:02.743






Info: Per scaricare devi usare un client come uTorrent o Transmission
AnnounceURL
udp://tracker.coppersurfer.tk:6969/announce
Hash 96662fc2697660ff920a7e46e49125e0faec8791
Peers seeds: 297 , leech: 422
Size 2.85 GB
Completato 706x
Aggiunto 03.02.19 - 14:02:16
Uploader   robbyrs
Votazione (Voti: 0)


Condividi questo bittorrent:


html/blog:


bbcode/forum:




Aggiungi Commento