Loading...
 * Dettagli Torrent   globale  | Commenti (0) 


- Red Dragon (2002).720p.H264.italian.english.Ac3-5.1.multisub-MIRCrew -


Download via torrent:
Categoria bittorrent BDRip
Descrizione
Red Dragon (2002).720p.H264.italian.english.Ac3-5.1.multisub-MIRCrew



NO FOUND ONLY ORIGINAL RELEASE

My release is always in double track audio italian and Original audio
for select it use VLC or dvd player home
not use wmp

Red Dragon (2002)

Quality MIRCrew on HD 720p da  2,4 gb











Titolo originale Red Dragon
Paese di produzione Stati Uniti d'America, Germania
Anno 2002
Durata 124 min
Genere thriller, drammatico
Regia Brett Ratner
Soggetto Thomas Harris (romanzo)
Sceneggiatura Ted Tally



   Anthony Hopkins: Hannibal Lecter
   Edward Norton: Will Graham
   Ralph Fiennes: Francis Dolarhyde
   Harvey Keitel: Jack Crawford
   Emily Watson: Reba McClane
   Mary-Louise Parker: Molly Graham
   Tyler Patrick Jones: Josh Graham
   Philip Seymour Hoffman: Freddy Lounds
   Ken Leung: Lloyd Bowman
   Bill Duke: capo della polizia
   William Lucking: Byron Metcalf
   John Rubinstein: John
   Frankie Faison: Barney Matthews
   Frank Whaley: Ralph Mandy
   Anthony Heald: Frederick Chilton
   Lalo Schifrin: direttore d'orchestra
   Azura Skye: libraia



Will Graham si è ritirato dall'FBI in seguito alla ricerca e cattura, tre anni prima, del temibile serial killer Hannibal Lecter. Il film si apre infatti con la scena della cattura del Dottor Lecter in casa sua: una lotta con Graham che lascerà entrambi seriamente feriti. Will ha infatti rischiato di morire e, dopo una difficoltosa ripresa fisica e psichica, ora vive appartato a Marathon, in Florida con la moglie e il figlio.



3 Years after retiring from the FBI because of a near-fatal encounter with Hannibal Lecter, who was helping him catch the "Chesapeake Ripper", only to reveal it was Hannibal himself, Will Graham is asked by his ex-partner Jack Crawford to come solve one last case - 2 slaughtered families every full moon

 





General
Unique ID                                : 144809747094826704801140280679641679636 (0x6CF157C2D94BC6008D409C0550C88714)
Complete name                            : Red Dragon (2002).720p.h264.ita.eng.multisub-MIRCrewRed Dragon (2002).720p.h264.ita.eng.multisub-MIRCrew.mkv
Format                                   : Matroska
Format version                           : Version 4 / Version 2
File size                                : 2.42 GiB
Duration                                 : 2h 4mn
Overall bit rate                         : 2 786 Kbps
Movie name                               : MIRCrew
Encoded date                             : UTC 2019-01-27 11:43:17
Writing application                      : mkvmerge v26.0.0 ('In The Game&#39 64-bit
Writing library                          : Lavf54.63.100
COMMENT                                  : mircrew

Video
ID                                       : 1
Format                                   : AVC
Format/Info                              : Advanced Video Codec
Format profile                           : [email protected]
Format settings, CABAC                   : Yes
Format settings, ReFrames                : 2 frames
Codec ID                                 : V_MPEG4/ISO/AVC
Duration                                 : 2h 4mn
Bit rate                                 : 1 900 Kbps
Width                                    : 1 280 pixels
Height                                   : 528 pixels
Display aspect ratio                     : 2.40:1
Frame rate mode                          : Variable
Frame rate                               : 23.976 fps
Color space                              : YUV
Chroma subsampling                       : 4:2:0
Bit depth                                : 8 bits
Scan type                                : Progressive
Bits/(Pixel*Frame)                       : 0.117
Stream size                              : 1.59 GiB (66%)
Title                                    : MIRCrew
Writing library                          : x264 core 130 r2273
Encoding settings                        : cabac=1 / ref=2 / deblock=1:0:0 / analyse=0x1:0x131 / me=hex / subme=7 / psy=1 / psy_rd=1.00:0.00 / mixed_ref=0 / me_range=16 / chroma_me=1 / trellis=1 / 8x8dct=0 / cqm=0 / deadzone=21,11 / fast_pskip=1 / chroma_qp_offset=-2 / threads=6 / lookahead_threads=1 / sliced_threads=0 / nr=0 / decimate=1 / interlaced=0 / bluray_compat=0 / constrained_intra=0 / bframes=3 / b_pyramid=0 / b_adapt=1 / b_bias=0 / direct=3 / weightb=1 / open_gop=0 / weightp=2 / keyint=230 / keyint_min=23 / scenecut=40 / intra_refresh=0 / rc_lookahead=40 / rc=abr / mbtree=1 / bitrate=1900 / ratetol=1.0 / qcomp=0.60 / qpmin=10 / qpmax=69 / qpstep=4 / vbv_maxrate=24000 / vbv_bufsize=24000 / nal_hrd=none / ip_ratio=1.40 / aq=1:1.00
Language                                 : Italian
Default                                  : Yes
Forced                                   : No
DURATION                                 : 02:04:26.376000000
NUMBER_OF_FRAMES                         : 179014
NUMBER_OF_BYTES                          : 1762358800
_STATISTICS_WRITING_APP                  : mkvmerge v26.0.0 ('In The Game&#39 64-bit
_STATISTICS_WRITING_DATE_UTC             : 2019-01-29 17:12:19
_STATISTICS_TAGS                         : BPS DURATION NUMBER_OF_FRAMES NUMBER_OF_BYTES

Audio #1
ID                                       : 2
Format                                   : AC-3
Format/Info                              : Audio Coding 3
Mode extension                           : CM (complete main)
Codec ID                                 : A_AC3
Duration                                 : 2h 4mn
Bit rate mode                            : Constant
Bit rate                                 : 448 Kbps
Channel(s)                               : 6 channels
Channel positions                        : Front: L C R, Side: L R, LFE
Sampling rate                            : 48.0 KHz
Bit depth                                : 16 bits
Compression mode                         : Lossy
Delay relative to video                  : -5ms
Stream size                              : 399 MiB (16%)
Title                                    : Ita Ac3 5.1
Language                                 : Italian
Default                                  : Yes
Forced                                   : No
DURATION                                 : 02:04:26.400000000
NUMBER_OF_FRAMES                         : 233325
NUMBER_OF_BYTES                          : 418118400
_STATISTICS_WRITING_APP                  : mkvmerge v26.0.0 ('In The Game&#39 64-bit
_STATISTICS_WRITING_DATE_UTC             : 2019-01-29 17:12:19
_STATISTICS_TAGS                         : BPS DURATION NUMBER_OF_FRAMES NUMBER_OF_BYTES

Audio #2
ID                                       : 3
Format                                   : AC-3
Format/Info                              : Audio Coding 3
Mode extension                           : CM (complete main)
Codec ID                                 : A_AC3
Duration                                 : 2h 4mn
Bit rate mode                            : Constant
Bit rate                                 : 448 Kbps
Channel(s)                               : 6 channels
Channel positions                        : Front: L C R, Side: L R, LFE
Sampling rate                            : 48.0 KHz
Bit depth                                : 16 bits
Compression mode                         : Lossy
Delay relative to video                  : -5ms
Stream size                              : 399 MiB (16%)
Title                                    : Eng Ac3 5.1
Language                                 : English
Default                                  : No
Forced                                   : No
DURATION                                 : 02:04:26.400000000
NUMBER_OF_FRAMES                         : 233325
NUMBER_OF_BYTES                          : 418118400
_STATISTICS_WRITING_APP                  : mkvmerge v26.0.0 ('In The Game&#39 64-bit
_STATISTICS_WRITING_DATE_UTC             : 2019-01-29 17:12:19
_STATISTICS_TAGS                         : BPS DURATION NUMBER_OF_FRAMES NUMBER_OF_BYTES

Menu
00:00:00.000                             : rofile of a Killer
00:08:46.067                             : :Main Titles
00:11:11.963                             : :Crawford's Request
00:16:05.882                             : rofiler
00:26:43.268                             : :The Lecter Option
00:29:02.407                             : :Just Like Old Times
00:36:58.049                             : :Living Proof
00:39:06.761                             : :Behold a Red Dragon
00:50:45.501                             : :Reba Mcclane
00:58:03.563                             : :The Notes
01:04:54.015                             : :Lecter's Message
01:08:27.103                             : :Rattling the Cage
01:11:26.282                             : :I Am the Dragon!
01:24:34.152                             : :Reba's Man
01:32:43.850                             : :The Dragon Defied
01:37:12.201                             : :The Blake Painting
01:40:46.040                             : :The Common Factor
01:44:40.524                             : :He Wants You...
01:52:54.017                             : :Facing the Dragon
02:00:06.741                             : :End Titles



Info: Per scaricare devi usare un client come uTorrent o Transmission
AnnounceURL
udp://tracker.coppersurfer.tk:6969/announce
Hash 0959948217e7933be36677a8c39ae9d59bd37550
Peers seeds: 38 , leech: 22
Size 2.46 GB
Completato 212x
Aggiunto 03.02.19 - 16:02:17
Uploader   robbyrs
Votazione (Voti: 0)


Condividi questo bittorrent:


html/blog:


bbcode/forum:




Aggiungi Commento