Loading...
 * Dettagli Torrent   globale  | Commenti (0) 


- Oceania (2016).720p.H264.italian.english.Ac3-5.1-sub.ita-MIRCrew -


Download via torrent:
Categoria bittorrent BDRip
Descrizione
Moana - Oceania (2016).720p.H264.italian.english.Ac3-5.1-sub.ita-MIRCrew


NO FOUND ONLY ORIGINAL RELEASE

My release is always in double track audio italian and Original audio
for select it use VLC or dvd player home
not use wmp

Oceania - Moana (2016)

Quality MIRCrew on HD 720p da  2,0 gb









Titolo originale Moana
Lingua originale inglese, lingue austronesiane
Paese di produzione Stati Uniti d'America
Anno 2016
Durata 107 min
Rapporto 2,35:1
Genere animazione, commedia, musicale, avventura
Regia Ron Clements, John Musker
Soggetto Ron Clements, John Musker, Aaron Kendell, Jordan Kendell, Pamela Ribon
Sceneggiatura Jared Bush, Taika Waititi



*******************************



In principio c'era solo l'Oceano, finché non emerse l'isola madre Te Fiti. Il suo cuore, una piccola pietra verde, aveva il più grande potere magico mai conosciuto: creare la vita. Col tempo però, in molti cominciarono a bramare l'enorme potere del cuore di Te Fiti, finché un giorno il semidio e mutaforma Maui attraversò l'oceano per rubarle il cuore, con lo scopo di donare il cuore di Te Fiti all'umanità affinché anche gli umani ottenessero il potere di creare la vita



In Ancient Polynesia, when a terrible curse incurred by the Demigod Maui reaches Moana's island, she answers the Ocean's call to seek out the Demigod to set things right.






General
Unique ID                                : 100411182096906980363206632335852544483 (0x4B8A7D800D6D1F342FB82CE4A2E5A1E3)
Complete name                            : Oceania (2016).720p.h264.ita.eng.sub.ita-MIRCrewOceania (2016).720p.h264.ita.eng.sub.ita-MIRCrew.mkv
Format                                   : Matroska
Format version                           : Version 4 / Version 2
File size                                : 1.99 GiB
Duration                                 : 1h 47mn
Overall bit rate                         : 2 653 Kbps
Movie name                               : MIRCrew
Encoded date                             : UTC 2019-01-29 18:10:03
Writing application                      : mkvmerge v26.0.0 ('In The Game&#39 64-bit
Writing library                          : Lavf54.63.100
COMMENT                                  : mircrew

Video
ID                                       : 1
Format                                   : AVC
Format/Info                              : Advanced Video Codec
Format profile                           : [email protected]
Format settings, CABAC                   : Yes
Format settings, ReFrames                : 2 frames
Codec ID                                 : V_MPEG4/ISO/AVC
Duration                                 : 1h 47mn
Bit rate                                 : 1 900 Kbps
Width                                    : 1 280 pixels
Height                                   : 528 pixels
Display aspect ratio                     : 2.40:1
Frame rate mode                          : Variable
Frame rate                               : 23.976 fps
Color space                              : YUV
Chroma subsampling                       : 4:2:0
Bit depth                                : 8 bits
Scan type                                : Progressive
Bits/(Pixel*Frame)                       : 0.117
Stream size                              : 1.37 GiB (69%)
Title                                    : MIRCrew
Writing library                          : x264 core 130 r2273
Encoding settings                        : cabac=1 / ref=2 / deblock=1:0:0 / analyse=0x1:0x131 / me=hex / subme=7 / psy=1 / psy_rd=1.00:0.00 / mixed_ref=0 / me_range=16 / chroma_me=1 / trellis=1 / 8x8dct=0 / cqm=0 / deadzone=21,11 / fast_pskip=1 / chroma_qp_offset=-2 / threads=6 / lookahead_threads=1 / sliced_threads=0 / nr=0 / decimate=1 / interlaced=0 / bluray_compat=0 / constrained_intra=0 / bframes=3 / b_pyramid=0 / b_adapt=1 / b_bias=0 / direct=3 / weightb=1 / open_gop=0 / weightp=2 / keyint=230 / keyint_min=23 / scenecut=40 / intra_refresh=0 / rc_lookahead=40 / rc=abr / mbtree=1 / bitrate=1900 / ratetol=1.0 / qcomp=0.60 / qpmin=10 / qpmax=69 / qpstep=4 / vbv_maxrate=24000 / vbv_bufsize=24000 / nal_hrd=none / ip_ratio=1.40 / aq=1:1.00
Language                                 : Italian
Default                                  : Yes
Forced                                   : No
DURATION                                 : 01:47:12.802000000
NUMBER_OF_FRAMES                         : 154233
NUMBER_OF_BYTES                          : 1514005688
_STATISTICS_WRITING_APP                  : mkvmerge v26.0.0 ('In The Game&#39 64-bit
_STATISTICS_WRITING_DATE_UTC             : 2019-01-31 18:21:00
_STATISTICS_TAGS                         : BPS DURATION NUMBER_OF_FRAMES NUMBER_OF_BYTES

Audio #1
ID                                       : 2
Format                                   : AC-3
Format/Info                              : Audio Coding 3
Mode extension                           : CM (complete main)
Codec ID                                 : A_AC3
Duration                                 : 1h 47mn
Bit rate mode                            : Constant
Bit rate                                 : 384 Kbps
Channel(s)                               : 6 channels
Channel positions                        : Front: L C R, Side: L R, LFE
Sampling rate                            : 48.0 KHz
Bit depth                                : 16 bits
Compression mode                         : Lossy
Delay relative to video                  : -5ms
Stream size                              : 294 MiB (14%)
Title                                    : Ita Ac3 5.1
Language                                 : Italian
Default                                  : Yes
Forced                                   : No
DURATION                                 : 01:47:12.832000000
NUMBER_OF_FRAMES                         : 201026
NUMBER_OF_BYTES                          : 308775936
_STATISTICS_WRITING_APP                  : mkvmerge v26.0.0 ('In The Game&#39 64-bit
_STATISTICS_WRITING_DATE_UTC             : 2019-01-31 18:21:00
_STATISTICS_TAGS                         : BPS DURATION NUMBER_OF_FRAMES NUMBER_OF_BYTES

Audio #2
ID                                       : 3
Format                                   : AC-3
Format/Info                              : Audio Coding 3
Mode extension                           : CM (complete main)
Codec ID                                 : A_AC3
Duration                                 : 1h 47mn
Bit rate mode                            : Constant
Bit rate                                 : 384 Kbps
Channel(s)                               : 6 channels
Channel positions                        : Front: L C R, Side: L R, LFE
Sampling rate                            : 48.0 KHz
Bit depth                                : 16 bits
Compression mode                         : Lossy
Delay relative to video                  : -5ms
Stream size                              : 294 MiB (14%)
Title                                    : Eng Ac3 5.1
Language                                 : English
Default                                  : No
Forced                                   : No
DURATION                                 : 01:47:12.832000000
NUMBER_OF_FRAMES                         : 201026
NUMBER_OF_BYTES                          : 308775936
_STATISTICS_WRITING_APP                  : mkvmerge v26.0.0 ('In The Game&#39 64-bit
_STATISTICS_WRITING_DATE_UTC             : 2019-01-31 18:21:00
_STATISTICS_TAGS                         : BPS DURATION NUMBER_OF_FRAMES NUMBER_OF_BYTES

Menu
00:00:00.000                             : :Chapter 1
00:07:15.685                             : :Chapter 2
00:11:59.802                             : :Chapter 3
00:16:13.764                             : :Chapter 4
00:21:29.579                             : :Chapter 5
00:28:02.806                             : :Chapter 6
00:32:11.346                             : :Chapter 7
00:35:16.280                             : :Chapter 8
00:41:36.869                             : :Chapter 9
00:45:04.868                             : :Chapter 10
00:49:10.322                             : :Chapter 11
00:53:21.031                             : :Chapter 12
00:57:33.324                             : :Chapter 13
01:05:45.024                             : :Chapter 14
01:10:46.075                             : :Chapter 15
01:12:52.117                             : :Chapter 16
01:15:41.954                             : :Chapter 17
01:23:17.075                             : :Chapter 18
01:29:50.927                             : :Chapter 19
01:36:13.726                             : :Chapter 20

Info: Per scaricare devi usare un client come uTorrent o Transmission
AnnounceURL
udp://tracker.coppersurfer.tk:6969/announce
Hash 3fa394257c497afdcbe0ffe41bcede4383b4ff85
Peers seeds: 68 , leech: 34
Size 2.01 GB
Completato 383x
Aggiunto 03.02.19 - 18:02:17
Uploader   robbyrs
Votazione (Voti: 0)


Condividi questo bittorrent:


html/blog:


bbcode/forum:




Aggiungi Commento