Loading...
 * Dettagli Torrent   globale  | Commenti (0) 


- Bohemian Rhapsody (2018).720p.H264.italian.english.Ac3-5.1.sub.ita.forcedita.eng-MIRCrew -


Download via torrent:
Categoria bittorrent BDRip
Descrizione
Bohemian Rhapsody 2018.720p.H264.italian.english.Ac3-5.1.sub.ita.forcedita.eng-MIRCrew



NO FOUND ONLY ORIGINAL RELEASE


My release is always in double track audio italian and Original audio
for select it use VLC or dvd player home
not use wmp

Bohemian Rhapsody 2018

Quality MIRCrew on HD 720p da  2,7 gb









Paese di produzione Stati Uniti d'America, Regno Unito
Anno 2018
Durata 134 min
Rapporto 2,39 : 1
Genere biografico, drammatico, musicale
Regia Bryan Singer
Dexter Fletcher (non accreditato)
Soggetto storia di Anthony McCarten e Peter Morgan
Sceneggiatura Anthony McCarten



   Rami Malek: Freddie Mercury
   Lucy Boynton: Mary Austin
   Gwilym Lee: Brian May
   Ben Hardy: Roger Taylor
   Joseph Mazzello: John Deacon
   Aidan Gillen: John Reid
   Tom Hollander: Jim "Miami" Beach
   Allen Leech: Paul Prenter
   Mike Myers: Ray Foster
   Aaron McCusker: Jim Hutton



Nel 1970 Farrokh Bulsara, uno studente universitario britannico di origini parsi che lavora come scaricatore di bagagli all'Aeroporto di Londra-Heathrow, assiste all'esibizione in un locale notturno di una band locale di nome Smile. Dopo lo spettacolo incontra il chitarrista e il batterista del gruppo, rispettivamente Brian May e Roger Taylor, e si offre di sostituire il loro cantante Tim Staffell, che proprio quella notte aveva lasciato il gruppo; la stessa sera Farrokh conosce una ragazza di nome Mary, che lavora come commessa da Biba. Con l'aggiunta del bassista John Deacon la band - che di lì a breve cambierà nome in Queen - fa concerti in tutta la Gran Bretagna, fino a quando i componenti del gruppo vendono il loro furgone per produrre il loro album di debutto.



Bohemian Rhapsody is a foot-stomping celebration of Queen, their music and their extraordinary lead singer Freddie Mercury. Freddie defied stereotypes and shattered convention to become one of the most beloved entertainers on the planet. The film traces the meteoric rise of the band through their iconic songs and revolutionary sound. They reach unparalleled success, but in an unexpected turn Freddie, surrounded by darker influences, shuns Queen in pursuit of his solo career.  









General
Unique ID                                : 193837044295889396181172904046296352740 (0x91D3A823A86E265498F424D28DECC7E4)
Complete name                            : C:Users
obbyDesktopBohemian Rhapsody 2018.720p.ita.eng.sub.ita.eng-MIRCrewBohemian Rhapsody 2018.720p.ita.eng.sub.ita.eng-MIRCrew.mkv
Format                                   : Matroska
Format version                           : Version 2
File size                                : 2.73 GiB
Duration                                 : 2h 14mn
Overall bit rate                         : 2 904 Kbps
Movie name                               : MIRCrew
Encoded date                             : UTC 2019-02-03 14:22:09
Writing application                      : mkvmerge v5.4.0 ('Piper&#39 built on Mar 10 2012 13:34:39
Writing library                          : Lavf54.63.100
COMMENT                                  : mircrew

Video
ID                                       : 1
Format                                   : AVC
Format/Info                              : Advanced Video Codec
Format profile                           : [email protected]
Format settings, CABAC                   : Yes
Format settings, ReFrames                : 2 frames
Codec ID                                 : V_MPEG4/ISO/AVC
Duration                                 : 2h 14mn
Bit rate                                 : 2 000 Kbps
Width                                    : 1 280 pixels
Height                                   : 544 pixels
Display aspect ratio                     : 2.40:1
Original display aspect ratio            : 2.40:1
Frame rate mode                          : Variable
Frame rate                               : 23.976 fps
Color space                              : YUV
Chroma subsampling                       : 4:2:0
Bit depth                                : 8 bits
Scan type                                : Progressive
Bits/(Pixel*Frame)                       : 0.120
Stream size                              : 1.83 GiB (67%)
Title                                    : MIRCrew
Writing library                          : x264 core 130 r2273
Encoding settings                        : cabac=1 / ref=2 / deblock=1:-1:-1 / analyse=0x1:0x131 / me=hex / subme=7 / psy=1 / psy_rd=1.00:0.10 / mixed_ref=0 / me_range=16 / chroma_me=1 / trellis=1 / 8x8dct=0 / cqm=0 / deadzone=21,11 / fast_pskip=1 / chroma_qp_offset=-3 / threads=6 / lookahead_threads=1 / sliced_threads=0 / nr=0 / decimate=1 / interlaced=0 / bluray_compat=0 / constrained_intra=0 / bframes=3 / b_pyramid=0 / b_adapt=1 / b_bias=0 / direct=3 / weightb=1 / open_gop=0 / weightp=2 / keyint=230 / keyint_min=23 / scenecut=40 / intra_refresh=0 / rc_lookahead=40 / rc=abr / mbtree=1 / bitrate=2000 / ratetol=1.0 / qcomp=0.60 / qpmin=10 / qpmax=69 / qpstep=4 / vbv_maxrate=24000 / vbv_bufsize=24000 / nal_hrd=none / ip_ratio=1.40 / aq=1:1.00
Language                                 : English
Default                                  : Yes
Forced                                   : No
DURATION                                 : 02:14:37.069000000
NUMBER_OF_FRAMES                         : 193656
NUMBER_OF_BYTES                          : 9024384723
_STATISTICS_WRITING_APP                  : mkvmerge v8.3.0 ('Over the Horizon&#39 64bit
_STATISTICS_WRITING_DATE_UTC             : 2019-01-31 01:33:12
_STATISTICS_TAGS                         : BPS DURATION NUMBER_OF_FRAMES NUMBER_OF_BYTES

Audio #1
ID                                       : 2
Format                                   : AC-3
Format/Info                              : Audio Coding 3
Mode extension                           : CM (complete main)
Codec ID                                 : A_AC3
Duration                                 : 2h 14mn
Bit rate mode                            : Constant
Bit rate                                 : 448 Kbps
Channel(s)                               : 6 channels
Channel positions                        : Front: L C R, Side: L R, LFE
Sampling rate                            : 48.0 KHz
Bit depth                                : 16 bits
Compression mode                         : Lossy
Delay relative to video                  : -42ms
Stream size                              : 431 MiB (15%)
Title                                    : Ita Ac3 5.1
Language                                 : English
Default                                  : No
Forced                                   : No
DURATION                                 : 02:14:37.078000000
NUMBER_OF_FRAMES                         : 757226
NUMBER_OF_BYTES                          : 1523538712
_STATISTICS_WRITING_APP                  : mkvmerge v8.3.0 ('Over the Horizon&#39 64bit
_STATISTICS_WRITING_DATE_UTC             : 2019-01-31 01:33:12
_STATISTICS_TAGS                         : BPS DURATION NUMBER_OF_FRAMES NUMBER_OF_BYTES

Audio #2
ID                                       : 3
Format                                   : AC-3
Format/Info                              : Audio Coding 3
Mode extension                           : CM (complete main)
Codec ID                                 : A_AC3
Duration                                 : 2h 14mn
Bit rate mode                            : Constant
Bit rate                                 : 448 Kbps
Channel(s)                               : 6 channels
Channel positions                        : Front: L C R, Side: L R, LFE
Sampling rate                            : 48.0 KHz
Bit depth                                : 16 bits
Compression mode                         : Lossy
Delay relative to video                  : -5ms
Stream size                              : 431 MiB (15%)
Title                                    : Eng Ac3 5.1
Language                                 : English
Default                                  : No
Forced                                   : No

Menu
00:00:00.000                             : :00:00:00.000
00:03:48.728                             : :00:03:48.728
00:07:45.465                             : :00:07:45.465
00:11:16.593                             : :00:11:16.593
00:17:41.811                             : :00:17:41.811
00:21:03.179                             : :00:21:03.179
00:27:24.184                             : :00:27:24.184
00:33:34.846                             : :00:33:34.846
00:37:22.282                             : :00:37:22.282
00:45:24.013                             : :00:45:24.013
00:52:19.595                             : :00:52:19.595
00:56:57.205                             : :00:56:57.205
01:03:11.413                             : :01:03:11.413
01:10:44.991                             : :01:10:44.991
01:15:25.730                             : :01:15:25.730
01:21:45.901                             : :01:21:45.901
01:26:59.172                             : :01:26:59.172
01:32:18.199                             : :01:32:18.199
01:36:43.923                             : :01:36:43.923
01:43:25.574                             : :01:43:25.574
01:50:23.283                             : :01:50:23.283
01:54:22.898                             : :01:54:22.898
02:00:41.109                             : :02:00:41.109
02:07:53.332                             : :02:07:53.332

Info: Per scaricare devi usare un client come uTorrent o Transmission
AnnounceURL
udp://tracker.coppersurfer.tk:6969/announce
Hash 2c993430cd324c28262682a45ff160d0fe3077ab
Peers seeds: 320 , leech: 38
Size 2.74 GB
Completato 1501x
Aggiunto 03.02.19 - 19:02:36
Uploader   robbyrs
Votazione (Voti: 0)


Condividi questo bittorrent:


html/blog:


bbcode/forum:




Aggiungi Commento