Loading...
 * Dettagli Torrent   globale  | Commenti (1) 


- Il pianeta proibito - Forbidden Planet (1956).720p.H264.italian.english.Ac3-sub.ita.eng-MIRCrew -


Download via torrent:
Categoria bittorrent BDRip
Descrizione
Il pianeta proibito - Forbidden Planet (1956).720p.H264.italian.english.Ac3-sub.ita.eng-MIRCrew


NO FOUND ONLY ORIGINAL RELEASE



My release is always in double track audio italian and Original audio
for select it use VLC or dvd player home
not use wmp

Il pianeta proibito - Forbidden Planet

(1956)


Quality MIRCrew on HD 720p da  1,7 gb









Titolo originale Forbidden Planet
Paese USA
Anno 1956
Durata 98 min
Colore colore
Audio sonoro
Genere fantascienza
Regia Fred McLeod Wilcox
Soggetto Irving Block, Allen Adler
Sceneggiatura Cyril Hume
Fotografia George J. Folsey
Montaggio Ferris Webster
Effetti speciali Arnold Gillespie, Joshua Meador, Warren Newcombe, Irving G. Ries
Musiche Bebe Barron, Louis Barron
Scenografia Hugh Hunt, Edwin B. Willis



  * Walter Pidgeon: Dr. Edward Morbius
  * Anne Francis: Altaira Morbius
  * Leslie Nielsen: Comandante John J. Adams
  * Warren Stevens: Lt. "Doc" Ostrow
  * Jack Kelly: Lt. Jerry Farman
  * Richard Anderson: Quinn
  * Earl Holliman: cuoco di bordo
  * George Wallace: nostromo
  * Robert Dix: Crewman Grey
  * Jimmy Thompson: Crewman Youngerford
  * James Drury: Crewman Strong
  * Harry Harvey Jr.: Crewman Randall
  * Roger McGee: Crewman Lindstrom
  * Peter Miller: Crewman Moran



L'incrociatore spaziale C-57-D è inviato in missione sul pianeta Altair IV alla ricerca di eventuali sopravvissuti della precedente spedizione Bellerofonte, dispersa venti anni prima.
All'arrivo la loro nave viene raggiunta da una forza immensa di natura ignota, dopodiché sono contattati dall'unico superstite della spedizione, il dottor Edward Morbius (Walter Pidgeon), il quale cerca invano di dissuaderli dall'atterrare.



When Adams and his crew are sent to investigate the silence from a planet inhabited by scientists, he finds all but two have died. Dr. Morbius and his daughter Altaira have somehow survived a hideous monster which roams the planet. Unknown to Adams, Morbius has made a discovery, and has no intention of sharing it (or his daughter!) with anyone.

 









General
Unique ID                                : 38018343959172960119661258155470893559 (0x1C9A1113B0B063768F6CB210A12831F7)
Complete name                            : Il pianeta proibito - Forbidden Planet (1956).720p.h264.ita.eng.sub.ita.eng-MIRCrewIl pianeta proibito - Forbidden Planet (1956).720p.h264.ita.eng.sub.ita.eng-MIRCrew.mkv
Format                                   : Matroska
Format version                           : Version 4 / Version 2
File size                                : 1.66 GiB
Duration                                 : 1h 38mn
Overall bit rate                         : 2 408 Kbps
Movie name                               : MIRCrew
Encoded date                             : UTC 2011-11-01 13:59:14
Writing application                      : mkvmerge v26.0.0 ('In The Game&#39 64-bit
Writing library                          : Lavf54.63.100
COMMENT                                  : mircrew

Video
ID                                       : 1
Format                                   : AVC
Format/Info                              : Advanced Video Codec
Format profile                           : [email protected]
Format settings, CABAC                   : Yes
Format settings, ReFrames                : 2 frames
Codec ID                                 : V_MPEG4/ISO/AVC
Duration                                 : 1h 38mn
Bit rate                                 : 1 900 Kbps
Width                                    : 1 280 pixels
Height                                   : 528 pixels
Display aspect ratio                     : 2.40:1
Frame rate mode                          : Variable
Frame rate                               : 23.976 fps
Color space                              : YUV
Chroma subsampling                       : 4:2:0
Bit depth                                : 8 bits
Scan type                                : Progressive
Bits/(Pixel*Frame)                       : 0.117
Stream size                              : 1.27 GiB (77%)
Title                                    : MIRCrew
Writing library                          : x264 core 130 r2273
Encoding settings                        : cabac=1 / ref=2 / deblock=1:-1:-1 / analyse=0x1:0x131 / me=hex / subme=7 / psy=1 / psy_rd=1.00:0.15 / mixed_ref=0 / me_range=16 / chroma_me=1 / trellis=1 / 8x8dct=0 / cqm=0 / deadzone=21,11 / fast_pskip=1 / chroma_qp_offset=-3 / threads=6 / lookahead_threads=1 / sliced_threads=0 / nr=0 / decimate=1 / interlaced=0 / bluray_compat=0 / constrained_intra=0 / bframes=3 / b_pyramid=0 / b_adapt=1 / b_bias=0 / direct=3 / weightb=1 / open_gop=0 / weightp=2 / keyint=230 / keyint_min=23 / scenecut=40 / intra_refresh=0 / rc_lookahead=40 / rc=abr / mbtree=1 / bitrate=1900 / ratetol=1.0 / qcomp=0.60 / qpmin=10 / qpmax=69 / qpstep=4 / vbv_maxrate=24000 / vbv_bufsize=24000 / nal_hrd=none / ip_ratio=1.40 / aq=1:1.00
Default                                  : Yes
Forced                                   : No
DURATION                                 : 01:38:30.196000000
NUMBER_OF_FRAMES                         : 141703
NUMBER_OF_BYTES                          : 1399496746
_STATISTICS_WRITING_APP                  : mkvmerge v26.0.0 ('In The Game&#39 64-bit
_STATISTICS_WRITING_DATE_UTC             : 2019-02-02 15:27:41
_STATISTICS_TAGS                         : BPS DURATION NUMBER_OF_FRAMES NUMBER_OF_BYTES

Audio #1
ID                                       : 2
Format                                   : AC-3
Format/Info                              : Audio Coding 3
Mode extension                           : CM (complete main)
Codec ID                                 : A_AC3
Duration                                 : 1h 38mn
Bit rate mode                            : Constant
Bit rate                                 : 256 Kbps
Channel(s)                               : 2 channels
Channel positions                        : Front: L R
Sampling rate                            : 48.0 KHz
Bit depth                                : 16 bits
Compression mode                         : Lossy
Delay relative to video                  : -5ms
Stream size                              : 180 MiB (11%)
Title                                    : Ita Ac3
Language                                 : Italian
Default                                  : Yes
Forced                                   : No
DURATION                                 : 01:38:30.304000000
NUMBER_OF_FRAMES                         : 184697
NUMBER_OF_BYTES                          : 189129728
_STATISTICS_WRITING_APP                  : mkvmerge v26.0.0 ('In The Game&#39 64-bit
_STATISTICS_WRITING_DATE_UTC             : 2019-02-02 15:27:41
_STATISTICS_TAGS                         : BPS DURATION NUMBER_OF_FRAMES NUMBER_OF_BYTES

Audio #2
ID                                       : 3
Format                                   : AC-3
Format/Info                              : Audio Coding 3
Mode extension                           : CM (complete main)
Codec ID                                 : A_AC3
Duration                                 : 1h 38mn
Bit rate mode                            : Constant
Bit rate                                 : 256 Kbps
Channel(s)                               : 2 channels
Channel positions                        : Front: L R
Sampling rate                            : 48.0 KHz
Bit depth                                : 16 bits
Compression mode                         : Lossy
Delay relative to video                  : -5ms
Stream size                              : 180 MiB (11%)
Title                                    : Eng Ac3
Language                                 : English
Default                                  : No
Forced                                   : No
DURATION                                 : 01:38:30.304000000
NUMBER_OF_FRAMES                         : 184697
NUMBER_OF_BYTES                          : 189129728
_STATISTICS_WRITING_APP                  : mkvmerge v26.0.0 ('In The Game&#39 64-bit
_STATISTICS_WRITING_DATE_UTC             : 2019-02-02 15:27:41
_STATISTICS_TAGS                         : BPS DURATION NUMBER_OF_FRAMES NUMBER_OF_BYTES

Menu
00:00:00.000                             : :00:00:00 - Credits
00:01:30.256                             : :00:01:30 - Deceleration Process
00:05:05.972                             : :00:05:05 - Red Carpet Treatment
00:10:27.293                             : :00:10:27 - Robby the Robot
00:15:01.567                             : :00:15:01 - Dr. Morbius
00:19:24.496                             : :00:19:24 - Unnatural Deaths
00:22:33.185                             : :00:22:33 - Alta and Her Friends
00:27:21.806                             : :00:27:21 - Transmitter Preparations
00:32:16.935                             : :00:32:16 - Old Customs
00:36:09.834                             : :00:36:09 - New Dress Needed
00:39:34.872                             : :00:39:34 - Invisible Intruder
00:42:37.888                             : :00:42:37 - Bathing Beauty and the Beast
00:48:17.895                             : :00:48:17 - The Krell
00:53:03.013                             : :00:53:03 - Plastic Educator
00:57:52.469                             : :00:57:52 - Subterranean Wonders
01:03:09.118                             : :01:03:09 - First Attack
01:07:09.859                             : :01:07:09 - No One Man
01:08:56.465                             : :01:08:56 - A Funeral and an Ultimatum
01:13:04.880                             : :01:13:04 - The Creature Alight
01:18:44.720                             : :01:18:44 - No Admittance
01:23:08.149                             : :01:23:08 - Monsters from the Id
01:27:52.767                             : :01:27:52 - His Other Self Attacks
01:30:42.770                             : :01:30:42 - "I deny you!"
01:35:09.036                             : :01:35:09 - Fleeing Altair-4
01:37:50.698                             : :01:37:50 - Cast List



Info: Per scaricare devi usare un client come uTorrent o Transmission
AnnounceURL
udp://tracker.coppersurfer.tk:6969/announce
Hash efa1eea93aa8622cf226dabd1135607742442e85
Peers seeds: 22 , leech: 2
Size 1.67 GB
Completato 76x
Aggiunto 04.02.19 - 22:02:46
Uploader   robbyrs
Votazione (Voti: 0)


Condividi questo bittorrent:


html/blog:


bbcode/forum:




Aggiungi Commento
Ultimi commenti
avatar   GatesukaGatesuka   
C A P O L A V O R O ! ! !
06/02 21.07
Tutti commenti (1)