Loading...
 * Dettagli Torrent   globale  | Commenti (0) 


- Batman (1966).1080p.H264.italian.english.Ac3-MIRCrew-mux by robbyrs -


Download via torrent:
Categoria bittorrent BDRip
Descrizione
Batman: The Movie - Batman (1966).1080p.H264.italian.english.Ac3-MIRCrew-mux by robbyrs



NO FOUND ONLY ORIGINAL RELEASE

My release is always in double track audio italian and Original audio
for select it use VLC or dvd player home
not use wmp

Batman: The Movie

(1966)

Quality MIRCrew on HD 1080p da  2,4 gb mux by robbyrs











Titolo originale Batman: The Movie
Lingua originale inglese
Paese di produzione Stati Uniti d'America
Anno 1966
Durata 105 min
Genere azione, commedia, fantastico
Regia Leslie H. Martinson
Soggetto basato sul personaggio dei fumetti creato da Bob Kane
Sceneggiatura Lorenzo Sempl jr.



   Adam West: Bruce Wayne / Batman
   Burt Ward: Dick Grayson / Robin
   Cesar Romero: Joker
   Burgess Meredith: Il Pinguino
   Frank Gorshin: L'Enigmista
   Lee Meriwether: Kitanya "Kitka" Alisoff / Catwoman
   Alan Napier: Alfred Pennyworth
   Neil Hamilton: James Gordon
   Stafford Repp: Sergente O'Hara
   Madge Blake: Harriet Cooper
   Reginald Denny: Commodoro Schmidlapp
   Milton Frome: Viceammiraglio Fangschleister
   Gil Perkins: Mr. Bluebeard
   Dick Crockett: Morgan
   George Sawaya: Quetch



Il film inizia con il commodoro Schmidlapp in pericolo a bordo del suo yacht, con un'invenzione in grado di polverizzare le persone e di farle tornare normali. Batman e Robin capiscono che dietro a tutto questo ci sono il Joker (Cesar Romero), il Pinguino (Burgess Meredith), l'Enigmista (Frank Gorshin) e Catwoman (Lee Meriwether), che vogliono impadronirsi del congresso delle Nazioni Unite



The arch-villains of the United Underworld - the Joker, the Penguin, the Riddler and the Catwoman - combine forces to dispose of Batman and Robin as they launch their fantastic plot to control the entire world. From his submarine, Penguin and his cohorts hijack a yacht containing a dehydrator, which can extract all moisture from humans and reduce them to particles of dust.

 





General
Unique ID                                : 209724833804268244224375338356743573521 (0x9DC788A3DFE4881B9B6CB9A944479011)
Complete name                            : Batman (1966).1080p.H264.ita.eng.MIRCrew mux by robbyrs.mkv
Format                                   : Matroska
Format version                           : Version 2
File size                                : 2.41 GiB
Duration                                 : 1h 44mn
Overall bit rate                         : 3 291 Kbps
Movie name                               : MIRCrew
Encoded date                             : UTC 2019-02-02 15:11:10
Writing application                      : mkvmerge v5.4.0 ('Piper&#39 built on Mar 10 2012 13:34:39
Writing library                          : libebml v1.2.3 + libmatroska v1.3.0

Video
ID                                       : 1
Format                                   : AVC
Format/Info                              : Advanced Video Codec
Format profile                           : [email protected]
Format settings, CABAC                   : Yes
Format settings, ReFrames                : 4 frames
Codec ID                                 : V_MPEG4/ISO/AVC
Duration                                 : 1h 44mn
Bit rate                                 : 2 500 Kbps
Width                                    : 1 920 pixels
Height                                   : 1 048 pixels
Display aspect ratio                     : 16:9
Frame rate                               : 23.976 fps
Color space                              : YUV
Chroma subsampling                       : 4:2:0
Bit depth                                : 8 bits
Scan type                                : Progressive
Bits/(Pixel*Frame)                       : 0.052
Stream size                              : 1.75 GiB (73%)
Title                                    : MIRCrew mux
Writing library                          : x264 core 152 r2851M ba24899
Encoding settings                        : cabac=1 / ref=4 / deblock=1:-1:-1 / analyse=0x3:0x113 / me=umh / subme=9 / psy=1 / psy_rd=1.00:0.15 / mixed_ref=1 / me_range=24 / chroma_me=1 / trellis=2 / 8x8dct=1 / cqm=0 / deadzone=21,11 / fast_pskip=1 / chroma_qp_offset=-3 / threads=32 / lookahead_threads=4 / sliced_threads=0 / nr=0 / decimate=1 / interlaced=0 / bluray_compat=0 / constrained_intra=0 / bframes=3 / b_pyramid=2 / b_adapt=2 / b_bias=0 / direct=3 / weightb=1 / open_gop=0 / weightp=2 / keyint=250 / keyint_min=25 / scenecut=40 / intra_refresh=0 / rc_lookahead=50 / rc=2pass / mbtree=1 / bitrate=2500 / ratetol=1.0 / qcomp=0.60 / qpmin=0 / qpmax=69 / qpstep=4 / cplxblur=20.0 / qblur=0.5 / vbv_maxrate=31250 / vbv_bufsize=31250 / nal_hrd=none / filler=0 / ip_ratio=1.40 / aq=3:1.00
Language                                 : Italian
Default                                  : Yes
Forced                                   : No

Audio #1
ID                                       : 2
Format                                   : AC-3
Format/Info                              : Audio Coding 3
Mode extension                           : CM (complete main)
Codec ID                                 : A_AC3
Duration                                 : 1h 44mn
Bit rate mode                            : Constant
Bit rate                                 : 448 Kbps
Channel(s)                               : 2 channels
Channel positions                        : Front: L R
Sampling rate                            : 48.0 KHz
Bit depth                                : 16 bits
Compression mode                         : Lossy
Stream size                              : 336 MiB (14%)
Title                                    : Ita Ac3 mux by robbyrs
Language                                 : Italian
Default                                  : Yes
Forced                                   : No

Audio #2
ID                                       : 3
Format                                   : AC-3
Format/Info                              : Audio Coding 3
Mode extension                           : CM (complete main)
Codec ID                                 : A_AC3
Duration                                 : 1h 44mn
Bit rate mode                            : Constant
Bit rate                                 : 384 Kbps
Channel(s)                               : 6 channels
Channel positions                        : Front: L C R, Side: L R, LFE
Sampling rate                            : 48.0 KHz
Bit depth                                : 16 bits
Compression mode                         : Lossy
Stream size                              : 288 MiB (12%)
Title                                    : Eng Ac3 5.1
Language                                 : English
Default                                  : No
Forced                                   : No





Info: Per scaricare devi usare un client come uTorrent o Transmission
AnnounceURL
udp://tracker.coppersurfer.tk:6969/announce
Hash dfd517d8ef1bfbdabe76916c7db5c6647d7330e0
Peers seeds: 20 , leech: 3
Size 2.41 GB
Completato 108x
Aggiunto 05.02.19 - 18:02:08
Uploader   robbyrs
Votazione (Voti: 0)


Condividi questo bittorrent:


html/blog:


bbcode/forum:




Aggiungi Commento