Loading...
 * Dettagli Torrent   globale  | Commenti (1) 


- Soldado - Sicario: Day of the Soldado (2018).720p.H264.italian.english.Ac3-5.1.sub.ita.eng-MIRCrew -


Download via torrent:
Categoria bittorrent BDRip
Descrizione
Sicario: Day of the Soldado - Soldado 2018.720p.H264.italian.english.Ac3-5.1.sub.ita.eng-MIRCrew


NO FOUND ONLY ORIGINAL RELEASE

My release is always in double track audio italian and Original audio
for select it use VLC or dvd player home
not use wmp

Soldado - Sicario: Day of the Soldado

2018


Quality MIRCrew on HD 720p da  2,4 gb










Titolo originale Sicario: Day of the Soldado
Lingua originale inglese
Paese di produzione Stati Uniti d'America
Anno 2018
Durata 122 min
Rapporto 2.39 : 1
Genere azione, thriller, drammatico
Regia Stefano Sollima
Sceneggiatura Taylor Sheridan



Benicio Del Toro, Josh Brolin, Catherine Keener, Matthew Modine, Manuel Garcia-Rulfo, Isabela Moner, Jeffrey Donovan, Christopher Heyerdahl, Shea Whigham, Jake Picking, David Castañeda



Nella guerra di droga non ci sono regole e la lotta della CIA al narcotraffico al confine fra Messico e Stati Uniti si è inasprita da quando i cartelli della droga hanno iniziato a infiltrare terroristi oltre la frontiera americana. Per combattere i narcos l'agente federale Matt Graver (Josh Brolin) dovrà assoldare il misterioso e impenetrabile Alejandro (Benicio Del Toro), la cui famiglia è stata sterminata da un boss del cartello della droga, per aumentare l'efferatezza della guerra.



The drug war on the U.S.-Mexico border has escalated as the cartels have begun trafficking terrorists across the US border. To fight the war, federal agent Matt Graver re-teams with the mercurial Alejandro.  









General
Unique ID                                : 9556177774351407780935129054655522466 (0x73073F0CADDA04C72ABB21615F3A6A2)
Complete name                            : Soldado (201.720p.h264.ita.eng.sub.ita.eng-MIRCrewSoldado (201.720p.h264.ita.eng.sub.ita.eng-MIRCrew.mkv
Format                                   : Matroska
Format version                           : Version 4 / Version 2
File size                                : 2.47 GiB
Duration                                 : 2h 3mn
Overall bit rate                         : 2 872 Kbps
Movie name                               : MIRCrew
Encoded date                             : UTC 2019-02-05T16:47:59Z
Writing application                      : mkvmerge v26.0.0 ('In The Game&#39 64-bit
Writing library                          : Lavf55.12.0

Video
ID                                       : 1
Format                                   : AVC
Format/Info                              : Advanced Video Codec
Format profile                           : [email protected]
Format settings, CABAC                   : Yes
Format settings, ReFrames                : 4 frames
Codec ID                                 : V_MPEG4/ISO/AVC
Duration                                 : 2h 3mn
Bit rate                                 : 2 000 Kbps
Width                                    : 1 280 pixels
Height                                   : 528 pixels
Display aspect ratio                     : 2.40:1
Frame rate                               : 24.000 fps
Color space                              : YUV
Chroma subsampling                       : 4:2:0
Bit depth                                : 8 bits
Scan type                                : Progressive
Bits/(Pixel*Frame)                       : 0.123
Stream size                              : 1.65 GiB (67%)
Title                                    : MIRCrew
Writing library                          : x264 core 142 r2479 dd79a61
Encoding settings                        : cabac=1 / ref=1 / deblock=1:0:0 / analyse=0x1:0x111 / me=hex / subme=2 / psy=1 / psy_rd=1.00:0.00 / mixed_ref=0 / me_range=16 / chroma_me=1 / trellis=0 / 8x8dct=0 / cqm=0 / deadzone=21,11 / fast_pskip=1 / chroma_qp_offset=0 / threads=6 / lookahead_threads=2 / sliced_threads=0 / nr=0 / decimate=1 / interlaced=0 / bluray_compat=0 / constrained_intra=0 / bframes=3 / b_pyramid=2 / b_adapt=1 / b_bias=0 / direct=1 / weightb=1 / open_gop=0 / weightp=1 / keyint=240 / keyint_min=24 / scenecut=40 / intra_refresh=0 / rc_lookahead=10 / rc=abr / mbtree=1 / bitrate=2000 / ratetol=1.0 / qcomp=0.60 / qpmin=0 / qpmax=69 / qpstep=4 / vbv_maxrate=50000 / vbv_bufsize=62500 / nal_hrd=none / filler=0 / ip_ratio=1.40 / aq=1:1.00
Language                                 : Italian
Default                                  : Yes
Forced                                   : No
DURATION                                 : 02:02:18.917000000
NUMBER_OF_FRAMES                         : 176134
NUMBER_OF_BYTES                          : 1828172691
_STATISTICS_WRITING_APP                  : mkvmerge v26.0.0 ('In The Game&#39 64-bit
_STATISTICS_WRITING_DATE_UTC             : 2019-02-05 19:47:05
_STATISTICS_TAGS                         : BPS DURATION NUMBER_OF_FRAMES NUMBER_OF_BYTES
Color primaries                          : BT.709-5, BT.1361, IEC 61966-2-4, SMPTE RP177
Transfer characteristics                 : BT.709-5, BT.1361
Matrix coefficients                      : BT.709-5, BT.1361, IEC 61966-2-4 709, SMPTE RP177

Audio #1
ID                                       : 2
Format                                   : AC-3
Format/Info                              : Audio Coding 3
Mode extension                           : CM (complete main)
Codec ID                                 : A_AC3
Duration                                 : 2h 3mn
Bit rate mode                            : Constant
Bit rate                                 : 448 Kbps
Channel(s)                               : 6 channels
Channel positions                        : Front: L C R, Side: L R, LFE
Sampling rate                            : 48.0 KHz
Bit depth                                : 16 bits
Compression mode                         : Lossy
Delay relative to video                  : -5ms
Stream size                              : 395 MiB (16%)
Title                                    : Ita Ac3 5.1
Language                                 : Italian
Default                                  : Yes
Forced                                   : No
DURATION                                 : 02:02:41.696000000
NUMBER_OF_FRAMES                         : 230053
NUMBER_OF_BYTES                          : 412254976
_STATISTICS_WRITING_APP                  : mkvmerge v26.0.0 ('In The Game&#39 64-bit
_STATISTICS_WRITING_DATE_UTC             : 2019-02-05 19:47:05
_STATISTICS_TAGS                         : BPS DURATION NUMBER_OF_FRAMES NUMBER_OF_BYTES

Audio #2
ID                                       : 3
Format                                   : AC-3
Format/Info                              : Audio Coding 3
Mode extension                           : CM (complete main)
Codec ID                                 : A_AC3
Duration                                 : 2h 3mn
Bit rate mode                            : Constant
Bit rate                                 : 448 Kbps
Channel(s)                               : 6 channels
Channel positions                        : Front: L C R, Side: L R, LFE
Sampling rate                            : 48.0 KHz
Bit depth                                : 16 bits
Compression mode                         : Lossy
Delay relative to video                  : -5ms
Stream size                              : 395 MiB (16%)
Title                                    : Eng Ac3 5.1
Language                                 : English
Default                                  : No
Forced                                   : No
DURATION                                 : 02:03:20.000000000
NUMBER_OF_FRAMES                         : 231250
NUMBER_OF_BYTES                          : 414400000
_STATISTICS_WRITING_APP                  : mkvmerge v26.0.0 ('In The Game&#39 64-bit
_STATISTICS_WRITING_DATE_UTC             : 2019-02-05 19:47:05
_STATISTICS_TAGS                         : BPS DURATION NUMBER_OF_FRAMES NUMBER_OF_BYTES

Menu
00:00:00.000                             : :00:00:00.000
00:06:38.916                             : :00:06:38.833
00:14:45.833                             : :00:14:45.750
00:18:48.541                             : :00:18:48.417
00:27:07.833                             : :00:27:07.750
00:34:08.041                             : :00:34:07.958
00:42:27.291                             : :00:42:27.167
00:51:08.541                             : :00:51:08.417
01:00:55.666                             : :01:00:55.459
01:09:17.083                             : :01:09:17.000
01:14:23.541                             : :01:14:23.375
01:23:21.208                             : :01:23:21.000
01:28:37.166                             : :01:28:37.083
01:35:34.416                             : :01:35:34.209
01:41:39.416                             : :01:41:39.292
01:46:10.291                             : :01:46:10.167


Info: Per scaricare devi usare un client come uTorrent o Transmission
AnnounceURL
udp://tracker.coppersurfer.tk:6969/announce
Hash 7fdfc31265822e538d7db070ff80dc54a195549f
Peers seeds: 154 , leech: 101
Size 2.47 GB
Completato 395x
Aggiunto 08.02.19 - 18:02:52
Uploader   robbyrs
Votazione (Voti: 1)


Condividi questo bittorrent:


html/blog:


bbcode/forum:




Aggiungi Commento
Ultimi commenti
  
Perfetto come sempre grazie!
15/02 17.14
Tutti commenti (1)